<?xml version="1.0" standalone="no"?>
<!DOCTYPE svg PUBLIC "-//W3C//DTD SVG 1.1//EN" "http://www.w3.org/Graphics/SVG/1.1/DTD/svg11.dtd" >
<svg xmlns="http://www.w3.org/2000/svg" xmlns:xlink="http://www.w3.org/1999/xlink" version="1.1">
<metadata></metadata>
<defs>
<font id="shrimpradarregular" horiz-adv-x="1277" >
<font-face units-per-em="2048" ascent="1536" descent="-512" />
<missing-glyph horiz-adv-x="532" />
<glyph horiz-adv-x="0" />
<glyph unicode="&#xd;" horiz-adv-x="1024" />
<glyph horiz-adv-x="0" />
<glyph horiz-adv-x="0" />
<glyph unicode=" "  horiz-adv-x="532" />
<glyph unicode="&#x09;" horiz-adv-x="532" />
<glyph unicode="&#xa0;" horiz-adv-x="532" />
<glyph unicode="!" horiz-adv-x="638" d="M143 117v90q4 55 44 94t112 39h39q76 0 116 -41t40 -100v-90q-4 -55 -43 -94.5t-113 -39.5h-39q-76 0 -116 41t-40 101zM143 1573h351l-41 -1139h-269z" />
<glyph unicode="&#x22;" horiz-adv-x="628" d="M20 1223v276h273v-268v-8v-193q0 -82 -54.5 -138t-158.5 -56h-33v161h33q41 0 55.5 18.5t14.5 65.5v142h-130zM338 1223v276h272v-268v-8v-193q0 -82 -55 -138t-160 -56h-30v161h30q41 0 56.5 18.5t15.5 65.5v142h-129z" />
<glyph unicode="#" horiz-adv-x="1794" d="M141 387v279h289l19 129h-265v278h303l58 426h346l-60 -426h236l59 426h347l-60 -426h240v-278h-279l-18 -129h256v-279h-295l-53 -387h-346l55 387h-236l-55 -387h-344l53 387h-250zM776 666h236l16 129h-235z" />
<glyph unicode="$" horiz-adv-x="1204" d="M78 444h315q0 -86 72 -131l-2 293q-82 12 -152.5 51t-122 96.5t-81 133.5t-29.5 162t28.5 162.5t80 138t122 103.5t152.5 56v146h268v-144q84 -14 155.5 -55t125 -102.5t83 -140t29.5 -164.5h-315q0 41 -21.5 75.5t-56.5 55.5l2 -275q82 -14 153.5 -55t125 -101.5 t83 -138.5t29.5 -166q0 -86 -29.5 -162.5t-82 -138t-123 -103.5t-152.5 -56v-107h-268v107q-84 14 -154.5 55t-123 102.5t-82 139t-29.5 163.5zM393 1049q0 -84 70 -117l-2 244q-31 -20 -49.5 -53t-18.5 -74zM731 575l2 -262q33 23 53.5 56.5t20.5 74.5t-20.5 76t-55.5 55z " />
<glyph unicode="%" horiz-adv-x="1089" d="M-8 0l874 1575h219l-876 -1575h-217zM-2 1153v121q4 76 57.5 127t151.5 51h51q104 0 157.5 -55.5t53.5 -132.5v-121q-4 -76 -57.5 -127t-153.5 -51h-51q-100 0 -154.5 55t-54.5 133zM143 1153q0 -25 19.5 -44t44.5 -19h51q27 0 47.5 19t20.5 44v111q0 27 -20.5 45 t-47.5 18h-51q-25 0 -44.5 -18.5t-19.5 -44.5v-111zM614 311v121q4 76 57.5 127t151.5 51h51q104 0 157.5 -55t53.5 -133v-121q-4 -76 -57 -127t-154 -51h-51q-100 0 -154.5 55t-54.5 133zM760 311q0 -25 19.5 -44t43.5 -19h51q27 0 47.5 19.5t20.5 43.5v111q0 27 -20.5 45 t-47.5 18h-51q-25 0 -44 -18t-19 -45v-111z" />
<glyph unicode="+" horiz-adv-x="1220" d="M127 430v301h336v334h299v-334h336v-301h-336v-336h-299v336h-336z" />
<glyph unicode="," horiz-adv-x="436" d="M82 0v276h272v-256q0 -154 -61 -266q-61 -117 -211 -141v119q86 16 123 125q18 55 18 110v17q0 4 -4 16h-137z" />
<glyph unicode="-" horiz-adv-x="1220" d="M168 430v301h889v-301h-889z" />
<glyph unicode="." horiz-adv-x="479" d="M82 141q0 66 46 112t112 46t111.5 -46t45.5 -112t-46 -111.5t-111 -45.5q-66 0 -112 46t-46 111z" />
<glyph unicode="/" horiz-adv-x="1261" d="M94 0l737 1575h349l-738 -1575h-348z" />
<glyph unicode="0" horiz-adv-x="1208" d="M82 430v664h2q4 88 38 165.5t97.5 136t153.5 91.5t207 33h49q121 0 213 -36t155.5 -97.5t95 -143.5t31.5 -174l2 -663h-2q-4 -90 -38.5 -167t-97 -135.5t-153 -91t-206.5 -32.5h-49q-121 0 -214.5 35.5t-156 97t-95 143.5t-32.5 174zM426 430q0 -31 12.5 -58.5t34 -49 t49 -34t58.5 -12.5h49q31 0 58.5 12.5t49 34t33.5 49t12 58.5v639q0 31 -12 58.5t-33.5 49t-49.5 34t-58 12.5h-49q-31 0 -58.5 -12.5t-49 -34t-34 -49t-12.5 -58.5v-639z" />
<glyph unicode="1" horiz-adv-x="507" d="M-49 1194v307h129h131h215v-1501h-346v1194h-129z" />
<glyph unicode="2" horiz-adv-x="1212" d="M86 0v317q0 180 127 307.5t307 127.5h142q63 0 108 47t45 110v144q0 63 -45 108t-108 45h-107q-63 0 -108.5 -45t-45.5 -108h-315q0 195 137 332t332 137h107q195 0 331.5 -137.5t136.5 -331.5v-144q0 -195 -137 -332t-331 -137h-109q-51 0 -87 -35.5t-36 -87.5h666v-317 h-1010z" />
<glyph unicode="3" horiz-adv-x="1067" d="M84 2v295h139h56h251q47 0 79 31.5t32 79.5v104q0 47 -31.5 79t-79.5 32h-153h-21h-94v36v183v39h94h21h51q47 0 79 31.5t32 78.5v105q0 47 -32 78.5t-79 31.5h-149h-56h-139v295h422q78 0 147.5 -29.5t120.5 -81t81 -121t30 -147.5v-84q0 -72 -24.5 -134t-67.5 -111 q86 -49 139 -135.5t53 -192.5v-86q0 -78 -29.5 -146.5t-81 -120t-120 -81t-146.5 -29.5h-524z" />
<glyph unicode="4" horiz-adv-x="1353" d="M82 803v28v670h311v-670v-53q0 -66 47 -109.5t111 -43.5h295v876h344v-1501h-344v334h-295q-96 0 -182 37t-149.5 100.5t-100.5 149.5t-37 182z" />
<glyph unicode="5" horiz-adv-x="1161" d="M82 449h315q0 -63 44 -108.5t110 -45.5h53h53q63 0 107.5 44t46.5 107q-2 68 -46 115t-108 47h-53h-272q-53 0 -98.5 19.5t-79 53.5t-53 79t-19.5 98v31v29v266v159v158h995v-317h-680v-266h207h53q96 0 181.5 -37t149 -99.5t100 -148.5t38.5 -184v-3v-2 q-2 -96 -38.5 -181t-100 -148.5t-148.5 -99t-182 -35.5h-53h-53q-98 0 -183 36.5t-148.5 100t-100.5 149.5t-37 183z" />
<glyph unicode="6" horiz-adv-x="1286" d="M82 434v15v75v529q0 96 37 182t100.5 149.5t148.5 100.5t183 37h53h76h53q96 0 182 -37t149.5 -100.5t100.5 -149.5t37 -182h-315q0 63 -45 108t-109 45h-53h-76h-53q-63 0 -108.5 -45t-45.5 -108v-103q41 12 86 19.5t97 7.5h125q121 0 214 -36t155.5 -97.5t95 -143.5 t32.5 -176v-90q0 -92 -32.5 -174t-95 -143.5t-156 -97t-213.5 -35.5h-125q-121 0 -214.5 35.5t-156 97t-95 143.5t-32.5 174zM424 434q0 -61 47 -107t109 -46h125q31 0 58.5 12t49 33.5t33.5 49t12 58.5v90q0 31 -12 58.5t-33.5 49t-49.5 35t-58 13.5h-125 q-31 0 -59.5 -13.5t-50 -35t-34 -49t-12.5 -58.5v-90z" />
<glyph unicode="7" horiz-adv-x="1165" d="M84 1184v317h995v-317l-448 -1184h-344l446 1184h-649z" />
<glyph unicode="8" horiz-adv-x="1206" d="M80 423.5v25.5q0 88 29.5 165.5t83.5 139.5q-53 59 -83 135t-30 164v22t2 25q2 12 3 23.5t5 23.5q6 35 19 65q2 12 8 23q4 8 7 15t7 16l12 20l13 21q61 98 164.5 156.5t228.5 58.5h106q125 0 228.5 -58.5t165.5 -156.5l12 -21l12 -20l14 -31l9 -23q12 -31 18 -65 q4 -12 5 -23.5t3 -23.5t2 -24.5v-22.5q0 -88 -29.5 -164t-82.5 -135q53 -61 82.5 -139t29.5 -166v-24.5t-2 -23.5q-2 -12 -3 -24t-5 -23q-10 -49 -27 -88q-27 -63 -70.5 -115.5t-99 -90t-122 -59t-140.5 -21.5h-106q-74 0 -140.5 21.5t-122 59t-99.5 90t-70 115.5 q-16 39 -27 88q-4 10 -5 22.5t-3 24.5q-2 10 -2 22.5zM395 449q0 -63 45 -108.5t109 -45.5h106q63 0 108.5 45.5t45.5 108.5q0 66 -45 109.5t-109 43.5h-106q-66 0 -110 -44t-44 -109zM395 1053q0 -66 44 -100.5t110 -34.5h106q63 0 108.5 34.5t45.5 100.5q0 63 -45 108 t-109 45h-106q-63 0 -108.5 -45t-45.5 -108z" />
<glyph unicode="9" horiz-adv-x="1363" d="M84 453h315q0 -63 44 -108.5t110 -45.5h180q66 0 110 45t44 109v100q-80 -25 -182 -25h-123q-233 0 -371 134q-127 123 -127 317v92q0 195 127 318q137 133 371 133h123q231 0 368 -133q90 -88 119 -211q10 -49 10 -107v-618q0 -195 -137 -332t-332 -137h-180 q-195 0 -332 137t-137 332zM426 979q0 -61 47.5 -107.5t108.5 -46.5h123q61 0 108 46.5t47 107.5v92q0 61 -47 107.5t-108 46.5h-123q-61 0 -108.5 -46t-47.5 -108v-92zM1294 950z" />
<glyph unicode=":" horiz-adv-x="1705" d="M82 141q0 66 46 112t112 46t111.5 -46t45.5 -112t-46 -111.5t-111 -45.5q-66 0 -112 46t-46 111zM82 983q0 66 46 112t112 46t111.5 -46t45.5 -112t-46 -112t-111 -46q-66 0 -112 46.5t-46 111.5z" />
<glyph unicode=";" horiz-adv-x="1705" d="M82 0v276h272v-256q0 -154 -61 -266q-61 -117 -211 -141v119q86 16 123 125q18 55 18 110v17q0 4 -4 16h-137zM82 983q0 66 46 112t112 46t111.5 -46t45.5 -112t-46 -112t-111 -46q-66 0 -112 46.5t-46 111.5z" />
<glyph unicode="=" horiz-adv-x="1705" d="M168 375v301h889v-301h-889zM168 838v301h889v-301h-889z" />
<glyph unicode="?" horiz-adv-x="1130" d="M127 1106v65q0 47 36 120t78 117t132 84t182 40h141q78 0 238 -64q82 -33 136 -106.5t54 -171.5v-117q0 -33 -14 -100.5t-34.5 -111.5t-64.5 -94t-105.5 -79t-82.5 -33q-53 -10 -53 -61l-10 -178q0 -31 -31 -31h-190q-29 0 -31 31l-12 237v199q0 27 18 45t76 18h108h37h2 h2q12 0 47 45.5t35 86.5v92q0 14 -12 43.5t-35 44.5q-61 39 -82 39h-98q-35 0 -45 -4q-88 -35 -102.5 -71t-14.5 -85q0 -25 -24 -25h-258q-23 0 -23 25zM500 135q0 55 40 95t97 40t95 -40t38 -96t-39 -95t-95 -39t-96 40t-40 95z" />
<glyph unicode="A" horiz-adv-x="1431" d="M53 2l404 1497h518l403 -1497h-358l-43 164h-522l-43 -164h-359zM535 459h362l-182 676z" />
<glyph unicode="B" horiz-adv-x="1351" d="M164 0v657v183v657h627q78 0 147.5 -29.5t120.5 -81t80.5 -120t29.5 -146.5v-84q0 -72 -24.5 -134t-67.5 -111q86 -49 139.5 -136.5t53.5 -193.5v-84q0 -78 -30 -146.5t-81 -120t-119.5 -81t-146.5 -29.5h-729zM508 295h307q47 0 79 31.5t32 79.5v104q0 45 -32 78t-79 33 h-307v-326zM508 879h205q47 0 78.5 31.5t31.5 78.5v105q0 45 -31.5 77.5t-78.5 32.5h-205v-325z" />
<glyph unicode="C" horiz-adv-x="1206" d="M80 1090h2q8 182 135 303q133 123 363 123h47q233 0 368 -134q129 -125 129 -317h-342q0 61 -47 107.5t-108 46.5h-47q-61 0 -108.5 -46.5t-47.5 -107.5v-641q0 -61 46 -107.5t110 -46.5h47q61 0 106 45q49 49 49 109h342q0 -193 -129 -318q-135 -133 -368 -133h-47 q-233 0 -371 133q-127 125 -127 318z" />
<glyph unicode="D" horiz-adv-x="1290" d="M164 0v1499h256h86h217q117 -2 208 -39t152.5 -97t93 -141t31.5 -173v-623h-2q-4 -88 -36.5 -165t-94 -134t-150.5 -91t-202 -36h-217h-86h-256zM506 297h203q61 0 108 46t47 108v598q0 61 -47 107t-108 46h-203v-905z" />
<glyph unicode="E" horiz-adv-x="1187" d="M164 0v1499h862v-295h-516v-291h426v-295h-426v-321h516v-297h-862z" />
<glyph unicode="F" horiz-adv-x="1191" d="M164 0v1499h862v-295h-518v-291h428v-295h-428v-618h-344z" />
<glyph unicode="G" horiz-adv-x="1210" d="M84 426v664h2q4 88 39 165.5t97.5 136t153.5 91.5t208 33h47q121 0 214 -35t155.5 -96.5t95 -143.5t32.5 -176h-344q0 61 -46 107.5t-107 46.5h-47q-61 0 -108.5 -46.5t-47.5 -107.5v-639q0 -61 47 -108.5t109 -47.5h47q61 0 107 47.5t46 108.5v66h-200v294h544v-192 v-102v-66q0 -94 -32.5 -176t-95 -143.5t-155.5 -97.5t-214 -36h-47q-121 0 -214.5 36t-156.5 97.5t-96 143.5t-33 176z" />
<glyph unicode="H" horiz-adv-x="1411" d="M164 0v1499h344v-874h395v874h344v-1499h-344v328h-395v-328h-344z" />
<glyph unicode="I" horiz-adv-x="671" d="M164 0v1499h344v-1499h-344z" />
<glyph unicode="J" horiz-adv-x="1292" d="M84 428h2l-2 195h344v-205q4 -57 50 -100.5t106 -43.5h47q61 0 107 46.5t46 107.5h2l-2 766h-520v305h864v-1096q-8 -184 -137 -301q-137 -125 -360 -125h-47q-225 0 -363 125q-127 117 -135 301v3q-2 8 -2 22z" />
<glyph unicode="K" horiz-adv-x="1292" d="M164 0v1499h346v-543l332 543h397l-420 -676l420 -823h-397l-234 483l-98 -157v-326h-346z" />
<glyph unicode="L" horiz-adv-x="995" d="M164 0v1499h344v-1194h444v-305h-788z" />
<glyph unicode="M" horiz-adv-x="1591" d="M164 0v1499h344l291 -917l284 917h347v-1499h-347v449l-155 -449h-260l-160 455v-455h-344z" />
<glyph unicode="N" horiz-adv-x="1372" d="M164 0v1499h348l352 -754v754h346v-1499h-346l-354 723v-723h-346z" />
<glyph unicode="O" horiz-adv-x="1208" d="M82 428v666q4 88 39 165.5t97.5 136t153.5 91.5t208 33h49q121 0 214 -36t155.5 -97.5t95 -143.5t32.5 -174v-666q-4 -88 -38.5 -165.5t-98 -135t-154 -91.5t-206.5 -34h-49q-121 0 -214.5 36t-156 97.5t-95 143.5t-32.5 174zM426 428q0 -31 12.5 -58.5t34 -49t49 -34 t58.5 -12.5h49q31 0 58.5 12.5t49 34t33.5 49t12 58.5v641q0 61 -46 107.5t-107 46.5h-49q-31 0 -58.5 -12.5t-49 -34t-34 -49t-12.5 -58.5v-641z" />
<glyph unicode="P" horiz-adv-x="1339" d="M168 0v1499h590h67q53 0 135 -29.5t148 -89.5q135 -119 147 -307v-295q0 -195 -137 -323q-135 -127 -338 -127h-22h-244v-328h-346zM514 625h244q61 0 108 46t47 107v271q0 61 -47 107t-108 46h-244v-577z" />
<glyph unicode="Q" horiz-adv-x="1232" d="M61 428v666h2q4 88 38 165.5t97.5 135t153.5 90.5t207 33h49q119 0 212 -35t155.5 -96.5t95.5 -143.5t33 -174l2 -666h-2q-2 -88 -41 -170l237 -233h-370l-47 41q-55 -29 -124 -46.5t-151 -17.5h-49q-121 0 -214 36t-155.5 97.5t-95.5 143.5t-33 174zM403 1069l3 -641 q0 -31 12 -58.5t33.5 -49t49 -34t58.5 -12.5h49q4 0 9.5 1t9.5 1l-154 140l201 202l88 -88v539q0 31 -12.5 58.5t-34 49t-49 34t-58.5 12.5h-49q-31 0 -58.5 -12.5t-49 -34t-33.5 -49t-12 -58.5h-3z" />
<glyph unicode="R" horiz-adv-x="1290" d="M164 0v1499h579h52q37 0 118.5 -29.5t147.5 -89.5q133 -119 145 -305v-295q0 -109 -46 -202t-132 -156l244 -422h-400l-206 330h-156v-330h-346zM510 627h199q61 0 108 46t47 107v271q0 59 -49 108q-45 45 -106 45h-199v-577z" />
<glyph unicode="S" horiz-adv-x="1204" d="M78 444h315q0 -63 44 -108t110 -45h104q66 0 111 45t45 109.5t-45 109.5t-111 45h-104q-197 0 -332 127q-137 129 -137 322q0 195 137 332t332 137h104q193 0 332 -138q139 -135 139 -331h-315q0 63 -45 108t-111 45h-104q-66 0 -110 -45t-44 -109.5t44 -99.5t110 -35 h104q193 0 332 -137q139 -135 139 -331.5t-139 -331.5q-139 -137 -332 -138h-104q-195 0 -332 137.5t-137 331.5z" />
<glyph unicode="T" horiz-adv-x="1083" d="M49 1194v305h993v-305h-323v-1194h-346v1194h-324z" />
<glyph unicode="U" horiz-adv-x="1374" d="M166 428v1071h342l2 -1071q0 -31 12.5 -58.5t34 -49t49 -34t58.5 -12.5h49q31 0 58.5 12.5t49 34t33.5 49t12 58.5v1071h344v-1096h-2q-4 -88 -37.5 -165.5t-97 -135t-154 -91.5t-206.5 -34h-49q-121 0 -214.5 36t-156 97.5t-95 143.5t-32.5 174z" />
<glyph unicode="V" horiz-adv-x="1269" d="M106 1499h359l172 -874l170 874h358l-358 -1499h-344z" />
<glyph unicode="W" horiz-adv-x="1918" d="M106 1499l359 -2l145 -872l170 872v2h181h178v-2l170 -872l145 872l358 2l-331 -1499h-346l-177 743l-176 -743h-346z" />
<glyph unicode="X" horiz-adv-x="1136" d="M47 0l348 750l-348 749h344l178 -379l176 379h347l-351 -749l351 -750h-347l-176 381l-178 -381h-344z" />
<glyph unicode="Y" horiz-adv-x="1347" d="M20 1499h402l252 -504l250 504h401l-479 -831v-668h-346v668z" />
<glyph unicode="Z" horiz-adv-x="1402" d="M166 0v297l668 897h-668v305h1073v-305l-655 -897h655v-297h-1073z" />
<glyph unicode="a" horiz-adv-x="1337" d="M72 264v64v2v24h2q2 111 36.5 177.5t94 100.5t140.5 44t177 10v-2h328v8q0 31 -13.5 58.5t-35 49t-49 35t-58.5 13.5l-571 2v274h571q121 0 214 -32.5t155.5 -90t95.5 -136.5t33 -173l2 -692h-344v78q-16 -27 -55 -49q-35 -18 -96.5 -33.5t-166.5 -15.5h-178l-6 -3 q-80 0 -139 23q-63 27 -100 84t-37 180zM416 324q0 -29 20.5 -49.5t48.5 -20.5h84h189q25 0 45 10q16 10 31.5 28.5t15.5 57.5v8v52h-281h-84q-29 0 -49 -20.5t-20 -49.5v-8v-8z" />
<glyph unicode="b" horiz-adv-x="1349" d="M143 0v1575h351v-436h335q94 0 177.5 -36t144.5 -97.5t97 -144.5t36 -177v-254q-4 -90 -42 -168t-99.5 -136t-142 -92t-171.5 -34h-553h-133zM494 299h335q31 0 58.5 13.5t49 35t35 50t13.5 59.5v227q0 31 -13.5 58.5t-35 49t-49 35t-58.5 13.5h-335v-541z" />
<glyph unicode="c" horiz-adv-x="1265" d="M66 434v293h2q8 186 137 305q137 125 364 125h127q233 0 373 -133q131 -123 131 -322h-348q0 59 -48 107.5t-108 48.5h-127q-61 0 -110 -47q-45 -47 -45 -109v-268q0 -61 47 -108t108 -47h127q61 0 107 45q49 49 49 110h348q0 -197 -131 -323q-137 -133 -373 -134h-127 q-236 0 -372 134q-131 127 -131 323z" />
<glyph unicode="d" horiz-adv-x="1345" d="M70 430v254q0 94 35.5 177t97 144.5t144.5 97.5t177 36h330v436h350v-1575h-131h-549q-90 0 -171 34t-142 92t-98 136t-43 168zM369 457q0 -31 12 -59.5t33.5 -50t50.5 -35t59 -13.5h330v541h-330q-31 0 -59.5 -13.5t-50 -35t-33.5 -49t-12 -58.5v-227z" />
<glyph unicode="e" d="M70 727h2q4 90 38.5 168t99 136.5t156 92t209.5 33.5h125q117 0 209 -35t155.5 -95t99.5 -140t40 -170v-17v-12v-221l-786 -2v-31q0 -61 47 -97t110 -36h447v-299h-447q-123 0 -216 33t-157.5 90t-97 136t-32.5 173zM420 717h434q-10 55 -54 98t-100 43h-125 q-59 0 -104 -42t-51 -99z" />
<glyph unicode="f" horiz-adv-x="792" d="M70 0v1165h2q4 90 38.5 169t98 137.5t156 92t208.5 33.5l199 5v-302l-199 -4q-31 0 -59.5 -13t-50 -34.5t-33.5 -49.5t-12 -58v-209h229v-301h-229v-631h-348z" />
<glyph unicode="g" horiz-adv-x="1337" d="M72 717h2q4 88 38.5 166t97 136t154 91t207.5 33h123q78 0 156 -62v43h342v-718v-465q0 -92 -33 -174t-95.5 -143.5t-155.5 -97.5t-212 -36h-125q-121 0 -214 36t-155.5 97.5t-95 143t-32.5 174.5h342q0 -31 12 -58.5t33.5 -49t50.5 -34t59 -12.5h125q31 0 58.5 12.5 t49 34t34 49t12.5 58.5v55q-35 -8 -74 -12t-82 -4h-123q-121 0 -214 34.5t-156.5 96t-95 143.5t-31.5 176zM416 430q0 -61 47 -107.5t108 -46.5h123q61 0 108.5 46.5t47.5 107.5v201v61q0 61 -47 107.5t-109 46.5h-123q-61 0 -108 -46t-47 -108v-262z" />
<glyph unicode="h" horiz-adv-x="1419" d="M141 1575h348v-498q84 80 209 80h74q233 0 375 -133q129 -123 129 -322l2 -702h-348v702q0 59 -48 107.5t-110 48.5h-74q-209 0 -209 -203v-655h-346z" />
<glyph unicode="i" horiz-adv-x="638" d="M143 0v1139h351v-1139h-351zM143 1374v90q4 55 43 94t113 39h39q76 0 116 -40.5t40 -100.5v-90q-4 -55 -44 -94t-112 -39h-39q-76 0 -116 41t-40 100z" />
<glyph unicode="j" horiz-adv-x="487" d="M-213 -199h127q31 0 58.5 12.5t49 34t35 50t13.5 59.5h2l-2 674v508h348v-729v-478q-4 -90 -39 -167.5t-99.5 -136t-155.5 -92.5t-210 -34h-127v299zM61 1374v90q4 55 43 94t113 39h39q76 0 116 -40.5t40 -100.5v-90q-4 -55 -44 -94t-112 -39h-39q-76 0 -116 41t-40 100z " />
<glyph unicode="k" horiz-adv-x="1142" d="M141 0v1577h351v-733l235 295h350l-332 -414l332 -723h-348l-205 444l-32 -40v-406h-351z" />
<glyph unicode="l" horiz-adv-x="634" d="M143 0v1575h349v-1575h-349z" />
<glyph unicode="m" horiz-adv-x="2205" d="M143 0v1139h349v-62q39 37 90 58.5t116 21.5h76q113 0 201 -30.5t153 -84.5q66 53 155 84t204 31h74q123 0 216 -36t157.5 -97t97 -144t32.5 -178v-702h-346l-2 702q0 61 -47 107.5t-108 46.5h-74q-98 0 -153.5 -48t-55.5 -153v-655h-348v702q0 61 -47 107.5t-109 46.5 h-76q-98 0 -152 -48t-54 -153v-655h-349z" />
<glyph unicode="n" horiz-adv-x="1419" d="M143 0v1139h346v-62q39 37 90.5 58.5t118.5 21.5h76q121 0 215 -36t157.5 -97t96.5 -144t33 -178l2 -702h-348v702q0 61 -47 107.5t-109 46.5h-76q-98 0 -152 -48t-54 -153h-3v-655h-346z" />
<glyph unicode="o" d="M70 434v293h2q4 90 38.5 168t98 136.5t156 92t210.5 33.5h125q123 0 216.5 -36t158 -97t97 -144t32.5 -178l2 -292h-2q-4 -90 -39 -169t-99.5 -137.5t-155.5 -92.5t-210 -34h-125q-123 0 -217 36t-158.5 98.5t-97 145.5t-32.5 177zM418 434q0 -31 13 -59.5t34.5 -50 t50.5 -33.5t59 -12h125q31 0 59.5 12t50 33.5t35 50t13.5 59.5v268q0 31 -13.5 58.5t-35 49t-50 34t-59.5 12.5h-125q-63 0 -110 -46t-47 -108v-268z" />
<glyph unicode="p" horiz-adv-x="1347" d="M139 -494v1633h131h549q90 0 171 -34t142.5 -92.5t98.5 -136t43 -167.5v-254q0 -94 -36 -177t-97.5 -144.5t-144.5 -97.5t-177 -36h-330v-494h-350zM489 299h330q31 0 58.5 12.5t49 34t35 50t13.5 59.5v227q0 63 -47 109.5t-109 46.5h-330v-539z" />
<glyph unicode="q" horiz-adv-x="1353" d="M74 455v254q6 90 43 167.5t98 136t142 92.5t171 34h572h108v-1633h-350v494h-330q-94 0 -177 36t-144.5 97.5t-97 144t-35.5 177.5zM373 455q0 -61 47 -108.5t108 -47.5h330v539h-330q-61 0 -108 -46.5t-47 -109.5v-227z" />
<glyph unicode="r" horiz-adv-x="878" d="M141 0v1139h348v-62q84 80 207 80h111v-299h-111q-207 0 -207 -203v-655h-348z" />
<glyph unicode="s" horiz-adv-x="1261" d="M70 373h344q0 -51 20 -66q36 -28 127 -28h6h125q92 0 124 21.5t32 46t-5 37.5t-22 22q-37 22 -122 22h-7h-125q-242 0 -369.5 77t-127.5 263t128 280.5t369 94.5h125q242 0 370 -101.5t128 -289.5h-342q0 51 -21 67q-37 27 -135 27h-125q-92 0 -122.5 -21.5t-30.5 -46 t5 -38t21 -23.5q39 -20 127 -21h125q242 0 370 -76.5t128 -263.5q0 -186 -128 -280t-370 -94h-125q-242 0 -369.5 102t-127.5 289z" />
<glyph unicode="t" horiz-adv-x="917" d="M143 410l2 981h347v-367h231v-301h-231v-289q0 -61 49 -110q45 -45 108 -45l199 -5v-297h-199q-229 0 -366 125q-131 119 -140 308z" />
<glyph unicode="u" horiz-adv-x="1419" d="M143 438v701h346l3 -701q0 -61 47 -108t108 -47h74q98 0 153.5 48t55.5 152v656h348v-1139h-348v61q-39 -37 -90.5 -58t-118.5 -21h-74q-123 0 -216 35.5t-157.5 98t-97.5 145.5t-33 177z" />
<glyph unicode="v" horiz-adv-x="1325" d="M51 1139h346l265 -686l264 686h348l-438 -1139h-349z" />
<glyph unicode="w" horiz-adv-x="1783" d="M12 1124h344l170 -581l197 581h344l197 -581l172 581h342l-330 -1124h-342l-211 618l-209 -618h-344z" />
<glyph unicode="x" horiz-adv-x="1163" d="M16 0l359 567l-359 572h414l154 -242l153 242h414l-358 -572l358 -567h-422l-145 233l-146 -233h-422z" />
<glyph unicode="y" horiz-adv-x="1406" d="M143 -59h344q0 -31 12.5 -58.5t34 -49t49 -34t58.5 -12.5h125q31 0 58.5 12.5t49 34t34 49t12.5 58.5v55q-76 -16 -154 -16h-125q-121 0 -214 34.5t-155.5 96t-95.5 143.5t-33 176v694h342l2 -694q0 -61 46.5 -107.5t107.5 -46.5h125q31 0 58.5 12.5t49 34t34 49 t12.5 58.5v598v96h344v-718v-465q0 -92 -33 -174t-95.5 -143.5t-155.5 -97.5t-214 -36h-125q-121 0 -214 36t-155.5 97.5t-95.5 143t-33 174.5z" />
<glyph unicode="z" horiz-adv-x="1419" d="M143 0v301l609 541h-609v297h1133v-297h-2l-600 -541h602v-301h-1133z" />
<glyph unicode="&#xad;" horiz-adv-x="1220" d="M168 430v301h889v-301h-889z" />
<glyph unicode="&#xb4;" horiz-adv-x="641" d="M35 1288l188 363h398v-47l-408 -316h-178z" />
<glyph unicode="&#xc0;" horiz-adv-x="1431" d="M53 2l404 1497h518l403 -1497h-358l-43 164h-522l-43 -164h-359zM293 1937v48h397l189 -363h-179zM535 459h362l-182 676z" />
<glyph unicode="&#xc1;" horiz-adv-x="1566" d="M123 0l401 1499h162h358l402 -1499h-356l-46 164h-520l-45 -164h-356zM553 1622l188 363h398v-48l-408 -315h-178zM604 459h361l-181 676z" />
<glyph unicode="&#xc4;" horiz-adv-x="1431" d="M53 2l404 1497h518l403 -1497h-358l-43 164h-522l-43 -164h-359zM365 1573v319h253v-319h-253zM535 459h362l-182 676zM815 1573v319h254v-319h-254z" />
<glyph unicode="&#xc5;" horiz-adv-x="1431" d="M53 2l404 1497h518l403 -1497h-358l-43 164h-522l-43 -164h-359zM535 459h362l-182 676zM543 1726q0 66 46.5 111t112.5 45t111 -45t45 -111t-45 -110.5t-111 -44.5t-112.5 45t-46.5 110zM662 1726q0 -16 12 -28t28 -12t28.5 12t12.5 28t-12 28.5t-29 12.5q-16 0 -28 -12 t-12 -29z" />
<glyph unicode="&#xc6;" horiz-adv-x="1882" d="M88 0l766 1499h6h862v-295h-518v-291h428v-295h-428v-321h518v-297h-862v2v162h-332l-82 -164h-358zM680 461h180v350z" />
<glyph unicode="&#xc8;" horiz-adv-x="1187" d="M164 0v1499h106h240h516v-295h-516v-291h426v-295h-426v-321h516v-297h-862zM193 1937v48h397l188 -363h-178z" />
<glyph unicode="&#xc9;" horiz-adv-x="1187" d="M164 0v1499h106h240h516v-295h-516v-291h426v-295h-426v-321h516v-297h-862zM389 1624l189 363h399v-48l-410 -315h-178z" />
<glyph unicode="&#xcb;" horiz-adv-x="1187" d="M164 0v1499h106h240h516v-295h-516v-291h426v-295h-426v-321h516v-297h-862zM254 1573v319h254v-319h-254zM705 1573v319h253v-319h-253z" />
<glyph unicode="&#xcc;" horiz-adv-x="507" />
<glyph unicode="&#xcd;" horiz-adv-x="675" d="M164 0v1499h346v-1499h-346zM164 1624l188 363h400v-48l-410 -315h-178z" />
<glyph unicode="&#xcf;" horiz-adv-x="671" d="M-16 1573v319h254v-319h-254zM164 0v1499h344v-1499h-344zM434 1573v319h254v-319h-254z" />
<glyph unicode="&#xd0;" horiz-adv-x="1290" d="M8 623v297h156v579h258h86h215q117 -2 208 -38t152.5 -97t93 -142t31.5 -173v-623q-4 -88 -37.5 -165t-95 -134t-150.5 -91t-202 -36h-215h-86h-258v623h-156zM508 297h203q31 0 58.5 12.5t49 34t33.5 49t12 58.5h2l-2 598q0 61 -46 107t-107 46h-203v-282h154v-297h-154 v-326z" />
<glyph unicode="&#xd2;" horiz-adv-x="1208" d="M82 428v666q4 88 39 165.5t97.5 136t153.5 91.5t208 33h49q121 0 214 -36t155.5 -97.5t95 -143.5t32.5 -174v-666q-4 -88 -38.5 -165.5t-98 -135t-154 -91.5t-206.5 -34h-49q-121 0 -214.5 36t-156 97.5t-95 143.5t-32.5 174zM190 1937v48h398l188 -363h-178zM426 428 q0 -31 12.5 -58.5t34 -49t49 -34t58.5 -12.5h49q31 0 58.5 12.5t49 34t33.5 49t12 58.5v641q0 61 -46 107.5t-107 46.5h-49q-31 0 -58.5 -12.5t-49 -34t-34 -49t-12.5 -58.5v-641z" />
<glyph unicode="&#xd3;" horiz-adv-x="1208" d="M84 434v666q4 88 39 165.5t97.5 135t153.5 91.5t208 34h47q121 0 214 -36t155.5 -97.5t95 -143.5t32.5 -174l2 -665h-2q-4 -90 -38.5 -167t-97 -135.5t-154 -91t-207.5 -32.5h-47q-121 0 -214.5 35.5t-155.5 97t-95 143.5t-33 174zM426 434q0 -61 47 -107t109 -46h47 q61 0 108 46t47 107v641q0 61 -47 107.5t-108 46.5h-47q-61 0 -108.5 -46t-47.5 -108v-641zM426 1628l188 363h400v-47l-408 -316h-180z" />
<glyph unicode="&#xd6;" horiz-adv-x="1218" d="M82 428v666q4 88 39 165.5t97.5 135t153.5 91.5t208 34h47q121 0 214 -36t155.5 -97.5t95 -143.5t32.5 -174l2 -666h-2q-4 -90 -38.5 -166.5t-97 -135t-154 -91.5t-207.5 -33h-47q-121 0 -214.5 36t-156 97.5t-95 143.5t-32.5 174zM254 1573v319h254v-319h-254zM424 428 q0 -61 47 -107.5t109 -46.5h47q61 0 108 46.5t47 107.5v641q0 61 -47 107.5t-108 46.5h-47q-61 0 -108.5 -46.5t-47.5 -107.5v-641zM705 1573v319h253v-319h-253z" />
<glyph unicode="&#xd8;" horiz-adv-x="1208" d="M61 0l737 1575h349l-738 -1575h-348zM82 428v666q4 88 39 165.5t97.5 136t153.5 91.5t208 33h49q121 0 214 -36t155.5 -97.5t95 -143.5t32.5 -174v-666q-4 -88 -38.5 -165.5t-98 -135t-154 -91.5t-206.5 -34h-49q-121 0 -214.5 36t-156 97.5t-95 143.5t-32.5 174z M426 428q0 -31 12.5 -58.5t34 -49t49 -34t58.5 -12.5h49q31 0 58.5 12.5t49 34t33.5 49t12 58.5v641q0 61 -46 107.5t-107 46.5h-49q-31 0 -58.5 -12.5t-49 -34t-34 -49t-12.5 -58.5v-641z" />
<glyph unicode="&#xd9;" horiz-adv-x="1374" d="M166 428v1071h342l2 -1071q0 -31 12.5 -58.5t34 -49t49 -34t58.5 -12.5h49q31 0 58.5 12.5t49 34t33.5 49t12 58.5v1071h344v-1096h-2q-4 -88 -37.5 -165.5t-97 -135t-154 -91.5t-206.5 -34h-49q-121 0 -214.5 36t-156 97.5t-95 143.5t-32.5 174zM256 1937v48h397 l189 -363h-178z" />
<glyph unicode="&#xda;" horiz-adv-x="1374" d="M164 428v1071h342l2 -1071q0 -31 12 -58.5t33.5 -49t49.5 -34t59 -12.5h49q31 0 58.5 12.5t49 34t33.5 49t12 58.5v1071h344v-1096h-2q-4 -88 -37.5 -165.5t-97 -135t-154 -91.5t-206.5 -34h-49q-121 0 -214.5 36t-156 97.5t-95 143.5t-32.5 174zM584 1624l188 363h399 v-48l-409 -315h-178z" />
<glyph unicode="&#xdc;" horiz-adv-x="1374" d="M166 428v1071h342l2 -1071q0 -31 12.5 -58.5t34 -49t49 -34t58.5 -12.5h49q31 0 58.5 12.5t49 34t33.5 49t12 58.5v1071h344v-1096h-2q-4 -88 -37.5 -165.5t-97 -135t-154 -91.5t-206.5 -34h-49q-121 0 -214.5 36t-156 97.5t-95 143.5t-32.5 174zM332 1573v319h254v-319 h-254zM782 1573v319h254v-319h-254z" />
<glyph unicode="&#xdd;" horiz-adv-x="1443" d="M70 1499h401l252 -504l250 504h403l-481 -831v-668h-344v668zM510 1622l188 363h398v-48l-408 -315h-178z" />
<glyph unicode="&#xde;" horiz-adv-x="1394" d="M166 0v1499h344v-166h276h121q29 0 113 -28q168 -59 250 -228q39 -80 43 -168h2v-295q0 -190 -137 -319q-139 -131 -361 -131h-307v-164h-344zM510 459h307q61 0 107.5 47t46.5 108v271q0 61 -46 107t-108 46h-307v-579z" />
<glyph unicode="&#xe0;" horiz-adv-x="1337" d="M72 264v90h2q4 205 131 277q94 55 317 55v-2h328v8q0 59 -48 107.5t-108 48.5l-571 2v274h571q236 0 371 -123q127 -117 127 -309l2 -692h-344v78q-33 -53 -152 -82q-62 -16 -166 -16l-184 -3q-174 0 -239 107q-37 59 -37 180zM229 1604v47h398l188 -363h-178zM416 324 q0 -29 20.5 -49.5t48.5 -20.5h273q45 0 68.5 28.5t23.5 67.5v60h-365q-29 0 -49 -20.5t-20 -49.5v-16z" />
<glyph unicode="&#xe1;" horiz-adv-x="1337" d="M72 264v90h2q4 205 131 277q94 55 317 55v-2h328v8q0 59 -48 107.5t-108 48.5l-571 2v274h571q236 0 371 -123q127 -117 127 -309l2 -692h-344v78q-33 -53 -152 -82q-62 -16 -166 -16l-184 -3q-174 0 -239 107q-37 59 -37 180zM416 324q0 -29 20.5 -49.5t48.5 -20.5h273 q45 0 68.5 28.5t23.5 67.5v60h-365q-29 0 -49 -20.5t-20 -49.5v-16zM479 1288l189 363h397v-47l-408 -316h-178z" />
<glyph unicode="&#xe4;" horiz-adv-x="1337" d="M72 264v64v2v24h2q2 111 36.5 177.5t94 100.5t140.5 44t177 10v-2h328v8q0 31 -13.5 58.5t-35 49t-49 35t-58.5 13.5l-571 2v274h571q121 0 214 -32.5t155.5 -90t95.5 -136.5t33 -173l2 -692h-344v78q-16 -27 -55 -49q-35 -18 -96.5 -33.5t-166.5 -15.5h-178l-6 -3 q-80 0 -139 23q-63 27 -100 84t-37 180zM281 1229v268h254v-268h-254zM416 324q0 -29 20.5 -49.5t48.5 -20.5h84h189q25 0 45 10q16 10 31.5 28.5t15.5 57.5v8v52h-281h-84q-29 0 -49 -20.5t-20 -49.5v-8v-8zM731 1229v268h254v-268h-254z" />
<glyph unicode="&#xe5;" horiz-adv-x="1337" d="M72 264v64v2v24h2q2 111 36.5 177.5t94 100.5t140.5 44t177 10v-2h328v8q0 31 -13.5 58.5t-35 49t-49 35t-58.5 13.5l-571 2v274h571q121 0 214 -32.5t155.5 -90t95.5 -136.5t33 -173l2 -692h-344v78q-16 -27 -55 -49q-35 -18 -96.5 -33.5t-166.5 -15.5h-178l-6 -3 q-80 0 -139 23q-63 27 -100 84t-37 180zM416 324q0 -29 20.5 -49.5t48.5 -20.5h84h189q25 0 45 10q16 10 31.5 28.5t15.5 57.5v8v52h-281h-84q-29 0 -49 -20.5t-20 -49.5v-8v-8zM479 1346q0 66 47 110.5t113 44.5t111 -45t45 -110q0 -66 -45 -111t-111 -45t-113 45t-47 111z M598 1346q0 -16 12.5 -28.5t28.5 -12.5t28.5 12t12.5 29q0 16 -12.5 28t-28.5 12t-28.5 -12t-12.5 -28z" />
<glyph unicode="&#xe6;" horiz-adv-x="2037" d="M74 266v64v24q4 113 38.5 178.5t94 99.5t140.5 44t177 10h326v8q0 31 -12.5 58.5t-34 49t-49 35t-58.5 13.5h-571v276h571q98 0 178 -21.5t142 -62.5q61 47 144 74t188 27h125q117 0 206.5 -35t152 -94.5t97.5 -138t41 -166.5v-17v-12v-219l-776 -2v-29q0 -61 47 -97 t107 -36h440v-295h-440q-141 0 -242.5 43t-165.5 117q-6 -16 -25.5 -46t-65.5 -60.5t-122 -53t-195 -22.5h-176t-146.5 23.5t-99 82.5t-36.5 180zM418 324q0 -29 20.5 -49.5t48.5 -20.5h84h187q25 0 45 10q16 10 31.5 28.5t15.5 57.5v10v50h-279h-84q-29 0 -49 -20.5 t-20 -49.5v-8v-8zM1194 709h430q-10 53 -54 95t-97 42h-125q-57 0 -102.5 -41t-51.5 -96z" />
<glyph unicode="&#xe8;" d="M70 727h2q4 90 38.5 168t99 136.5t156 92t209.5 33.5h125q117 0 209 -35t155.5 -95t99.5 -140t40 -170v-17v-12v-221l-786 -2v-31q0 -61 47 -97t110 -36h447v-299h-447q-123 0 -216 33t-157.5 90t-97 136t-32.5 173zM229 1604v47h398l188 -363h-178zM420 717h434 q-10 55 -54 98t-100 43h-125q-59 0 -104 -42t-51 -99z" />
<glyph unicode="&#xe9;" horiz-adv-x="1273" d="M70 727h2q4 90 38.5 168t99 136.5t156 92t209.5 33.5h125q117 0 209 -35t155.5 -95t99.5 -140t40 -170v-17v-12v-221l-786 -2v-31q0 -61 47 -97t110 -36h447v-299h-447q-123 0 -216 33t-157.5 90t-97 136t-32.5 173zM420 717h434q-10 55 -54 98t-100 43h-125 q-59 0 -104 -42t-51 -99zM475 1288l189 363h397v-47l-408 -316h-178z" />
<glyph unicode="&#xeb;" d="M70 727h2q4 90 38.5 168t99 136.5t156 92t209.5 33.5h125q117 0 209 -35t155.5 -95t99.5 -140t40 -170v-17v-12v-221l-786 -2v-31q0 -61 47 -97t110 -36h447v-299h-447q-123 0 -216 33t-157.5 90t-97 136t-32.5 173zM281 1229v268h254v-268h-254zM420 717h434 q-10 55 -54 98t-100 43h-125q-59 0 -104 -42t-51 -99zM731 1229v268h254v-268h-254z" />
<glyph unicode="&#xec;" horiz-adv-x="1705" />
<glyph unicode="&#xed;" horiz-adv-x="495" d="M74 0v1139h350v-1139h-350zM141 1288l189 363h397v-47l-408 -316h-178z" />
<glyph unicode="&#xf0;" horiz-adv-x="1265" d="M72 430v199h2q4 88 37.5 165.5t97 136t154 91.5t206.5 33h49q66 -4 109 -21q-27 47 -57.5 92t-67.5 91l-268 -93v174l149 52q-47 49 -99 100t-112 106h379q35 -25 69 -49t66 -53l248 84l-4 -174l-115 -41q131 -154 204 -337t73 -382v-198q-4 -90 -39 -167t-98.5 -135.5 t-153.5 -91t-207 -32.5h-125q-121 0 -214 34.5t-155.5 96t-95 143.5t-32.5 176zM416 430q0 -31 12 -58.5t33.5 -49t49.5 -34t58 -12.5h125q61 0 107.5 46.5t46.5 107.5h2l-2 174v14q-6 57 -51 98.5t-103 41.5h-125q-31 0 -58.5 -12.5t-49 -34t-33.5 -49t-12 -58.5v-174z" />
<glyph unicode="&#xf2;" d="M70 434v293h2q4 90 38.5 168t98 136.5t156 92t210.5 33.5h125q123 0 216.5 -36t158 -97t97 -144t32.5 -178l2 -292h-2q-4 -90 -39 -169t-99.5 -137.5t-155.5 -92.5t-210 -34h-125q-123 0 -217 36t-158.5 98.5t-97 145.5t-32.5 177zM229 1604v47h398l188 -363h-178z M418 434q0 -31 13 -59.5t34.5 -50t50.5 -33.5t59 -12h125q31 0 59.5 12t50 33.5t35 50t13.5 59.5v268q0 31 -13.5 58.5t-35 49t-50 34t-59.5 12.5h-125q-63 0 -110 -46t-47 -108v-268z" />
<glyph unicode="&#xf3;" d="M70 434v293h2q4 90 38.5 168t98 136.5t156 92t210.5 33.5h125q123 0 216.5 -36t158 -97t97 -144t32.5 -178l2 -292h-2q-4 -90 -39 -169t-99.5 -137.5t-155.5 -92.5t-210 -34h-125q-123 0 -217 36t-158.5 98.5t-97 145.5t-32.5 177zM418 434q0 -31 13 -59.5t34.5 -50 t50.5 -33.5t59 -12h125q31 0 59.5 12t50 33.5t35 50t13.5 59.5v268q0 31 -13.5 58.5t-35 49t-50 34t-59.5 12.5h-125q-63 0 -110 -46t-47 -108v-268zM475 1288l189 363h397v-47l-408 -316h-178z" />
<glyph unicode="&#xf6;" d="M70 434v293h2q4 90 38.5 168t98 136.5t156 92t210.5 33.5h125q123 0 216.5 -36t158 -97t97 -144t32.5 -178l2 -292h-2q-4 -90 -39 -169t-99.5 -137.5t-155.5 -92.5t-210 -34h-125q-123 0 -217 36t-158.5 98.5t-97 145.5t-32.5 177zM281 1229v268h254v-268h-254zM418 434 q0 -31 13 -59.5t34.5 -50t50.5 -33.5t59 -12h125q31 0 59.5 12t50 33.5t35 50t13.5 59.5v268q0 31 -13.5 58.5t-35 49t-50 34t-59.5 12.5h-125q-63 0 -110 -46t-47 -108v-268zM731 1229v268h254v-268h-254z" />
<glyph unicode="&#xf9;" horiz-adv-x="1419" d="M143 438v701h346l3 -701q0 -61 47 -108t108 -47h74q98 0 153.5 48t55.5 152v656h348v-1139h-348v61q-39 -37 -90.5 -58t-118.5 -21h-74q-123 0 -216 35.5t-157.5 98t-97.5 145.5t-33 177zM229 1604v47h398l188 -363h-178z" />
<glyph unicode="&#xfa;" horiz-adv-x="1419" d="M143 438v701h346l3 -701q0 -61 47 -108t108 -47h74q98 0 153.5 48t55.5 152v656h348v-1139h-348v61q-39 -37 -90.5 -58t-118.5 -21h-74q-123 0 -216 35.5t-157.5 98t-97.5 145.5t-33 177zM590 1288l188 363h398v-47l-408 -316h-178z" />
<glyph unicode="&#xfc;" horiz-adv-x="1419" d="M143 438v701h346l3 -701q0 -61 47 -108t108 -47h74q98 0 153.5 48t55.5 152v656h348v-1139h-348v61q-39 -37 -90.5 -58t-118.5 -21h-74q-123 0 -216 35.5t-157.5 98t-97.5 145.5t-33 177zM352 1229v268h254v-268h-254zM803 1229v268h254v-268h-254z" />
<glyph unicode="&#xfd;" horiz-adv-x="1402" d="M139 -59h344q0 -31 12.5 -58.5t34 -49t49 -34t58.5 -12.5h125q31 0 58.5 12.5t49 34t33.5 49t12 58.5v55q-76 -16 -153 -16h-125q-121 0 -214 34.5t-155.5 96t-95.5 143.5t-33 176v694h342l2 -694q0 -61 46 -107.5t108 -46.5h125q31 0 58.5 12.5t49 34t33.5 49t12 58.5 v598v96h345v-718v-465q0 -92 -33 -174t-95.5 -143.5t-155.5 -97.5t-214 -36h-125q-121 0 -214 36t-155.5 97.5t-95.5 143t-33 174.5zM582 1288l188 363h397v-47l-407 -316h-178z" />
<glyph unicode="&#xfe;" horiz-adv-x="1351" d="M143 -494v2071h351v-438h329q90 0 171 -34t142.5 -92.5t98.5 -136t43 -167.5v-254q0 -94 -36 -177t-97.5 -144.5t-144 -97.5t-177.5 -36h-329v-494h-351zM494 299h329q31 0 58.5 12.5t49 34t35 50t13.5 59.5v227q0 63 -47 109.5t-109 46.5h-329v-539z" />
<glyph unicode="&#xff;" horiz-adv-x="1406" d="M143 -59h344q0 -31 12.5 -58.5t34 -49t49 -34t58.5 -12.5h125q31 0 58.5 12.5t49 34t34 49t12.5 58.5v55q-76 -16 -154 -16h-125q-121 0 -214 34.5t-155.5 96t-95.5 143.5t-33 176v694h342l2 -694q0 -61 46.5 -107.5t107.5 -46.5h125q31 0 58.5 12.5t49 34t34 49 t12.5 58.5v598v96h344v-718v-465q0 -92 -33 -174t-95.5 -143.5t-155.5 -97.5t-214 -36h-125q-121 0 -214 36t-155.5 97.5t-95.5 143t-33 174.5zM352 1229v268h254v-268h-254zM803 1229v268h254v-268h-254z" />
<glyph unicode="&#x178;" horiz-adv-x="1347" d="M20 1499h402l252 -504l250 504h401l-479 -831v-668h-346v668zM328 1573v319h254v-319h-254zM778 1573v319h254v-319h-254z" />
<glyph unicode="&#x2000;" horiz-adv-x="995" />
<glyph unicode="&#x2001;" horiz-adv-x="1991" />
<glyph unicode="&#x2002;" horiz-adv-x="995" />
<glyph unicode="&#x2003;" horiz-adv-x="1991" />
<glyph unicode="&#x2004;" horiz-adv-x="663" />
<glyph unicode="&#x2005;" horiz-adv-x="497" />
<glyph unicode="&#x2006;" horiz-adv-x="331" />
<glyph unicode="&#x2007;" horiz-adv-x="331" />
<glyph unicode="&#x2008;" horiz-adv-x="248" />
<glyph unicode="&#x2009;" horiz-adv-x="398" />
<glyph unicode="&#x200a;" horiz-adv-x="110" />
<glyph unicode="&#x2010;" horiz-adv-x="1220" d="M168 430v301h889v-301h-889z" />
<glyph unicode="&#x2011;" horiz-adv-x="1220" d="M168 430v301h889v-301h-889z" />
<glyph unicode="&#x2012;" horiz-adv-x="1220" d="M168 430v301h889v-301h-889z" />
<glyph unicode="&#x2013;" horiz-adv-x="1355" d="M168 430v301h1024v-301h-1024z" />
<glyph unicode="&#x2014;" horiz-adv-x="2379" d="M168 430v301h2048v-301h-2048z" />
<glyph unicode="&#x202f;" horiz-adv-x="398" />
<glyph unicode="&#x205f;" horiz-adv-x="497" />
<glyph unicode="&#x25fc;" horiz-adv-x="1136" d="M0 0v1137h1137v-1137h-1137z" />
</font>
</defs>
</svg>
